Higher Power (2018) | Lethal Weapon S03E06 WEBRip HamsterStudio Org avi | Examples

DCs Legends of Tomorrow S01 Special-Their Time is Now 720p HDTV x264-BAJSKORV[rartv]

seeders: 3
leechers: 0
updated:
Added by z0n3212.59M in TV
Torrent verified. Downloaded 9,721 times.

DownloadFast Safe Anonymous
movies, software, shows...
  • View all DC’s Legends Of Tomorrow episodes
  • Season: Full 1st season
  • IMDb link: 4532368
  • TVmaze link: DC’s Legends Of Tomorrow
  • Original run: 01 January 2016 — Present
  • Summary:

    Time-traveling rogue Rip Hunter assembles a disparate group of both heroes and villains to confront an unstoppable threat to the planet…and to time itself seeking revenge for the death of his wife and son.Firestorm, The white canary, The Atom, Captain Cold and Heatwave combine together to fight a man who has the largest army of all times and have lived in the world for over 1000 years.

    Written by Valkyrie28894 Last edited by 5fingerdis, 5 months ago
Available in versions: 1080p720p480pHDTVWEBRipx264x265
DCs Legends of Tomorrow S01 Special-Their Time is Now 720p HDTV x264-BAJSKORV[rartv] (Size: 614.59 MB)
  DCs.Legends.of.Tomorrow.S01.Special-Their.Time.is.Now.720p.HDTV.x264-BAJSKORV.mkv 585.95 MB
  rarbg.com.txt 34 bytes
  DCs.Legends.of.Tomorrow.S01.Special-Their.Time.is.Now.720p.HDTV.x264-BAJSKORV.nfo 190 bytes
  Sample

Description


http://rarbg.to
DCs.Legends.of.Tomorrow.S01.Special-Their.Time.is.Now.720p.HDTV.x264-BAJSKORV[rartv]

image
Screens :

image
Mediainfo :

Video
ID : 1
Format : AVC
Format/Info : Advanced Video Codec
Format profile : [email protected]
Format settings, CABAC : Yes
Format settings, ReFrames : 9 frames
Codec ID : V_MPEG4/ISO/AVC
Duration : 21mn 26s
Bit rate : 3 435 Kbps
Width : 1 280 pixels
Height : 720 pixels
Display aspect ratio : 16:9
Frame rate mode : Constant
Frame rate : 23.976 (24000/1001) fps
Color space : YUV
Chroma subsampling : 4:2:0
Bit depth : 8 bits
Scan type : Progressive
Bits/(Pixel*Frame) : 0.155
Stream size : 527 MiB (90%)
Writing library : x264 core 148 r2638 7599210
Encoding settings : cabac=1 / ref=9 / deblock=1:-2:-2 / analyse=0x3:0x133 / me=umh / subme=10 / psy=1 / psy_rd=1.00:0.00 / mixed_ref=1 / me_range=32 / chroma_me=1 / trellis=2 / 8x8dct=1 / cqm=0 / deadzone=21,11 / fast_pskip=0 / chroma_qp_offset=-2 / threads=20 / lookahead_threads=2 / sliced_threads=0 / nr=0 / decimate=1 / interlaced=0 / bluray_compat=0 / constrained_intra=0 / bframes=5 / b_pyramid=2 / b_adapt=2 / b_bias=0 / direct=3 / weightb=1 / open_gop=0 / weightp=2 / keyint=250 / keyint_min=23 / scenecut=40 / intra_refresh=0 / rc_lookahead=60 / rc=crf / mbtree=1 / crf=18.0 / qcomp=0.60 / qpmin=0 / qpmax=69 / qpstep=4 / ip_ratio=1.40 / aq=1:1.00
Language : English
Default : Yes
Forced : No
Color range : Limited
Matrix coefficients : BT.709

Audio
ID : 2
Format : AC-3
Format/Info : Audio Coding 3
Mode extension : CM (complete main)
Format settings, Endianness : Big
Codec ID : A_AC3
Duration : 21mn 26s
Bit rate mode : Constant
Bit rate : 384 Kbps
Channel(s) : 6 channels
Channel positions : Front: L C R, Side: L R, LFE
Sampling rate : 48.0 KHz
Frame rate : 31.250 fps (1536 spf)
Compression mode : Lossy
Stream size : 58.9 MiB (10%)
Default : Yes
Forced : No

Related Torrents

torrent name size files age seed leech

Sharing Widget


Download torrent
614.59 MB
seeders:3
leechers:0
DCs Legends of Tomorrow S01 Special-Their Time is Now 720p HDTV x264-BAJSKORV[rartv]



To share this torrent use the code below and insert it into comments, status messages, forum posts or your signature.

Torrent: DCs Legends of Tomorrow S01 ...0p HDTV x264-BAJSKORV[rartv]

Trackers

tracker name
udp://tracker.openbittorrent.com:80/announce
udp://tracker.publicbt.com:80/announce
udp://tracker.coppersurfer.tk:6969/announce
udp://9.rarbg.me:2710/announce
udp://glotorrents.pw:6969/announce
http://tracker.trackerfix.com/announce
udp://9.rarbg.to:2710/announce
udp://tracker.opentrackr.org:1337/announce
µTorrent compatible trackers list

Locations

name
KickassTorrents
Torrent hash: CD99DE7C7639D821D8D6535A4650DC5F80B469BC

All Comments

audio
9/10
video
9/10
please, leave only comments related to that torrent
Sign In

audio: 10video: 10
thanks man
audio: 10video: 10
Thanks!
audio: 10video: 10
Very Thanks !
audio: 10video: 10
Thanks!

User Opinions

marty4ever4267, yukihimedono3782, Dmwinc2989, qioz2222, Hezmada1950, josmitty1126, kale_641055, dumpit906, p1k1p236, Chipsdevil176 ... And 82 more
tnm717624, sithsolo332, YLAN_26
Report a bug Open chat
Sitemap